Spread the love, not just the word! Give your friends the gift of reliable IPTV by referring them to PrivateIPTVAccess.com

[MagicStar] Non-rem no Mado 2024 Haru [WEBDL] [1080p] [HULU] [JPN_SUB]

Category:
Date:
2024-04-03 06:43 UTC
Submitter:
Seeders:
913
Information:
Leechers:
0
File size:
1.3 GiB
Completed:
907
Info hash:
927ef5f95c55fb809fad2fd29515b9f20b912003


Say goodbye to costly cable clutter and hello to seamless IPTV streaming. Stream smarter, not harder – choose www.PrivateIPTVaccess.com IPTV service today! CLICK HERE!
HD 1080p from HULU JAPAN. Japanese subtitles added. ************** Support Us Ali (Zhifubao / QR code): https://i.ibb.co/FWV2ggm/1660626347125.png PayPalMe: https://www.paypal.com/paypalme/sakuragikenji ETH (ERC20): 0xea3286E176099E8C9aBaf25A0edf231374C04E89 USDT (BTC / OMNI): 1Lemw6fu5vG3NdvWGxDxsPX7T7yUb3rNzu ************** ![alt text](https://i.ibb.co/60KTgR9/483b4974-0f60-40c0-8bbe-d2e5caa6449bb.jpg) ![alt text](https://i.ibb.co/nkVJnFZ/d21e19e1-dc4e-46a7-8461-dd4322c28036.jpg) ![alt text](https://i.ibb.co/Lv9mb1H/Non-rem-no-Mado-2024-Haru-1080p-HULU-WEB-DL-AAC2-0-H-264-Magic-Star-mkv.jpg) ``` General Unique ID : 279969520363049323830089297004690855735 (0xD2A02B1449447EA8254E213C7732D737) Complete name : Non.rem.no.Mado.2024.Haru.1080p.HULU.WEB-DL.AAC2.0.H.264-MagicStar.mkv Format : Matroska Format version : Version 4 File size : 1.29 GiB Duration : 45 min 56 s Overall bit rate : 4 029 kb/s Frame rate : 29.970 FPS Encoded date : 2024-04-03 06:36:12 UTC Writing application : mkvmerge v50.0.0 ('Awakenings') 64-bit Writing library : libebml v1.4.0 + libmatroska v1.6.2 Cover : Yes Attachments : cover.png Video ID : 1 Format : AVC Format/Info : Advanced Video Codec Format profile : High@L4 Format settings : CABAC / 4 Ref Frames Format settings, CABAC : Yes Format settings, Reference fra : 4 frames Codec ID : V_MPEG4/ISO/AVC Duration : 45 min 56 s Bit rate : 3 772 kb/s Width : 1 920 pixels Height : 1 080 pixels Display aspect ratio : 16:9 Frame rate mode : Constant Frame rate : 29.970 (29970/1000) FPS Original frame rate : 29.970 (30000/1001) FPS Color space : YUV Chroma subsampling : 4:2:0 Bit depth : 8 bits Scan type : Progressive Bits/(Pixel*Frame) : 0.061 Stream size : 1.21 GiB (94%) Default : Yes Forced : No Color range : Limited Color primaries : BT.709 Transfer characteristics : BT.709 Matrix coefficients : BT.709 Audio ID : 2 Format : AAC LC Format/Info : Advanced Audio Codec Low Complexity Codec ID : A_AAC-2 Duration : 45 min 56 s Bit rate : 253 kb/s Channel(s) : 2 channels Channel layout : L R Sampling rate : 48.0 kHz Frame rate : 46.875 FPS (1024 SPF) Compression mode : Lossy Stream size : 83.2 MiB (6%) Title : 日本語 [オリジナル] Language : Japanese Default : Yes Forced : No ```

File list

Can you ripping Tensei shitara slime datta ken specials? https://tver.jp/episodes/ep1uoaqq5u

MagicStar-subs (uploader)

User
@komene Animation series and variety shows are currently not in our upload schedule.