Spread the love, not just the word! Give your friends the gift of reliable IPTV by referring them to PrivateIPTVAccess.com

[MagicStar] Tokyo Hinkon Joshi. EP02 [HDTV] [1080p] [WOWOW] [JPN_SUB]

Category:
Date:
2023-11-25 03:59 UTC
Submitter:
Seeders:
93
File size:
555.2 MiB
Completed:
1297
Info hash:
0a6ae471dbe4c46ab3ff0a3a33426105f67e00f2


Say goodbye to costly cable clutter and hello to seamless IPTV streaming. Stream smarter, not harder – choose www.PrivateIPTVaccess.com IPTV service today! CLICK HERE!
HD 1080p from WOWOW Prime. WOWOW Original Series. Japanese subtitles added. ![alt text](https://i.ibb.co/mqWbpjr/435c92df-1f24-4485-8d20-4a1ca304634d.jpg) ![alt text](https://i.ibb.co/Z6cBCb7/Tokyo-Hinkon-Joshi-EP02-1080p-WOWOW-HDTV-H264-AAC-Magic-Star-mkv.jpg) ``` General Unique ID : 230981261272570472818622767556710849779 (0xADC55F6DB483C5BAAC9A91FEA1EB5CF3) Complete name : Tokyo.Hinkon.Joshi.EP02.1080p.WOWOW.HDTV.H264.AAC-MagicStar.mkv Format : Matroska Format version : Version 2 File size : 555 MiB Duration : 26 min 50 s Overall bit rate : 2 893 kb/s Frame rate : 29.970 FPS Encoded date : 2023-11-25 03:26:02 UTC Writing application : mkvmerge v8.5.2 ('Crosses') 32bit Writing library : libebml v1.3.3 + libmatroska v1.4.4 Video ID : 1 Format : AVC Format/Info : Advanced Video Codec Format profile : High@L4.1 Format settings : CABAC / 4 Ref Frames Format settings, CABAC : Yes Format settings, Reference fra : 4 frames Codec ID : V_MPEG4/ISO/AVC Duration : 26 min 49 s Bit rate : 2 698 kb/s Width : 1 920 pixels Height : 1 080 pixels Display aspect ratio : 16:9 Frame rate mode : Constant Frame rate : 29.970 (30000/1001) FPS Color space : YUV Chroma subsampling : 4:2:0 Bit depth : 8 bits Scan type : Progressive Bits/(Pixel*Frame) : 0.043 Stream size : 518 MiB (93%) Writing library : x264 core 148 r2638 7599210 Encoding settings : cabac=1 / ref=3 / deblock=1:0:0 / analyse=0x3:0x113 / me=umh / subme=8 / psy=1 / psy_rd=1.00:0.00 / mixed_ref=0 / me_range=16 / chroma_me=1 / trellis=2 / 8x8dct=1 / cqm=0 / deadzone=21,11 / fast_pskip=1 / chroma_qp_offset=-2 / threads=24 / lookahead_threads=4 / sliced_threads=0 / nr=0 / decimate=1 / interlaced=0 / bluray_compat=0 / constrained_intra=0 / bframes=3 / b_pyramid=2 / b_adapt=2 / b_bias=0 / direct=3 / weightb=1 / open_gop=0 / weightp=2 / keyint=300 / keyint_min=29 / scenecut=40 / intra_refresh=0 / rc_lookahead=40 / rc=crf / mbtree=1 / crf=21.0 / qcomp=0.60 / qpmin=0 / qpmax=69 / qpstep=4 / ip_ratio=1.40 / aq=1:1.00 Default : Yes Forced : No Audio ID : 2 Format : AAC LC Format/Info : Advanced Audio Codec Low Complexity Codec ID : A_AAC-2 Duration : 26 min 50 s Bit rate : 192 kb/s Channel(s) : 2 channels Channel layout : L R Sampling rate : 48.0 kHz Frame rate : 46.875 FPS (1024 SPF) Compression mode : Lossy Stream size : 36.9 MiB (7%) Language : Japanese Default : Yes Forced : No ```

File list