Spread the love, not just the word! Give your friends the gift of reliable IPTV by referring them to PrivateIPTVAccess.com

[MagicStar] Kyou kara Hitman EP05 [WEBDL] [1080p] [JPN_SUB]

Category:
Date:
2023-11-25 02:22 UTC
Submitter:
Seeders:
92
Information:
Leechers:
0
File size:
1003.3 MiB
Completed:
1211
Info hash:
712b9ce4b8c41f0e6eb26e15860164deedab07a5


Say goodbye to costly cable clutter and hello to seamless IPTV streaming. Stream smarter, not harder – choose www.PrivateIPTVaccess.com IPTV service today! CLICK HERE!
HD 1080p from TVer. Japanese subtitles added. ![alt text](https://i.ibb.co/56bSqyW/5e730913-e1f7-49b1-b947-5766e39d8b78.jpg) ![alt text](https://i.ibb.co/Ch6BTkZ/Magic-Star-Kyou-kara-Hitman-EP05-WEBDL-1080p-mkv.jpg) ``` General Unique ID : 301028569628467797728966271245797670768 (0xE277FE5EF3B5BC485E01A5F449F1BF70) Complete name : [MagicStar] Kyou kara Hitman EP05 [WEBDL] [1080p].mkv Format : Matroska Format version : Version 4 File size : 1 003 MiB Duration : 48 min 35 s Overall bit rate : 2 887 kb/s Frame rate : 29.970 FPS Encoded date : 2023-11-25 02:21:17 UTC Writing application : mkvmerge v50.0.0 ('Awakenings') 64-bit Writing library : libebml v1.4.0 + libmatroska v1.6.2 Video ID : 1 Format : AVC Format/Info : Advanced Video Codec Format profile : High@L4 Format settings : CABAC / 4 Ref Frames Format settings, CABAC : Yes Format settings, Reference fra : 4 frames Codec ID : V_MPEG4/ISO/AVC Duration : 48 min 35 s Bit rate : 2 692 kb/s Width : 1 920 pixels Height : 1 080 pixels Display aspect ratio : 16:9 Frame rate mode : Constant Frame rate : 29.970 (29970/1000) FPS Original frame rate : 29.970 (30000/1001) FPS Color space : YUV Chroma subsampling : 4:2:0 Bit depth : 8 bits Scan type : Progressive Bits/(Pixel*Frame) : 0.043 Stream size : 936 MiB (93%) Default : Yes Forced : No Color range : Limited Matrix coefficients : BT.709 Audio ID : 2 Format : AAC LC Format/Info : Advanced Audio Codec Low Complexity Codec ID : A_AAC-2 Duration : 48 min 35 s Bit rate : 192 kb/s Channel(s) : 2 channels Channel layout : L R Sampling rate : 48.0 kHz Frame rate : 46.875 FPS (1024 SPF) Compression mode : Lossy Stream size : 66.6 MiB (7%) Title : 日本語 [オリジナル] Language : Japanese Default : Yes Forced : No ```

File list