Spread the love, not just the word! Give your friends the gift of reliable IPTV by referring them to PrivateIPTVAccess.com

[MagicStar] Fermat no Ryouri EP06 [WEBDL] [1080p] [JPN_SUB]

Category:
Date:
2023-11-25 02:04 UTC
Submitter:
Seeders:
61
Information:
Leechers:
0
File size:
930.9 MiB
Completed:
1072
Info hash:
6bba4ffb96c3a282c73437abc927f5f022f3a98d


Say goodbye to costly cable clutter and hello to seamless IPTV streaming. Stream smarter, not harder – choose www.PrivateIPTVaccess.com IPTV service today! CLICK HERE!
HD 1080p from TVer. Japanese subtitles added. ![alt text](https://i.ibb.co/7kPw2r7/240211.jpg) ![alt text](https://i.ibb.co/J3yv5GP/Magic-Star-Fermat-no-Ryouri-EP06-WEBDL-1080p-mkv.jpg) ``` General Unique ID : 281405070243184124870075051448683185742 (0xD3B4A5272214D32EC3D467533DFBC64E) Complete name : [MagicStar] Fermat no Ryouri EP06 [WEBDL] [1080p].mkv Format : Matroska Format version : Version 4 File size : 931 MiB Duration : 45 min 51 s Overall bit rate : 2 838 kb/s Frame rate : 29.970 FPS Encoded date : 2023-11-25 01:59:46 UTC Writing application : mkvmerge v50.0.0 ('Awakenings') 64-bit Writing library : libebml v1.4.0 + libmatroska v1.6.2 Video ID : 1 Format : AVC Format/Info : Advanced Video Codec Format profile : High@L4 Format settings : CABAC / 4 Ref Frames Format settings, CABAC : Yes Format settings, Reference fra : 4 frames Codec ID : V_MPEG4/ISO/AVC Duration : 45 min 50 s Bit rate : 2 644 kb/s Width : 1 920 pixels Height : 1 080 pixels Display aspect ratio : 16:9 Frame rate mode : Constant Frame rate : 29.970 (29970/1000) FPS Original frame rate : 29.970 (30000/1001) FPS Color space : YUV Chroma subsampling : 4:2:0 Bit depth : 8 bits Scan type : Progressive Bits/(Pixel*Frame) : 0.043 Stream size : 867 MiB (93%) Default : Yes Forced : No Color range : Limited Color primaries : BT.709 Transfer characteristics : BT.709 Matrix coefficients : BT.709 Audio ID : 2 Format : AAC LC Format/Info : Advanced Audio Codec Low Complexity Codec ID : A_AAC-2 Duration : 45 min 51 s Bit rate : 192 kb/s Channel(s) : 2 channels Channel layout : L R Sampling rate : 48.0 kHz Frame rate : 46.875 FPS (1024 SPF) Compression mode : Lossy Stream size : 62.9 MiB (7%) Title : 日本語 [オリジナル] Language : Japanese Default : Yes Forced : No ```

File list