Spread the love, not just the word! Give your friends the gift of reliable IPTV by referring them to PrivateIPTVAccess.com

[MagicStar] Uchi no Bengoshi wa Te ga Kakaru EP07 [WEBDL] [1080p] [FOD] [JPN_SUB]

Category:
Date:
2023-11-25 01:56 UTC
Submitter:
Seeders:
90
Information:
Leechers:
0
File size:
1.5 GiB
Completed:
905
Info hash:
40accf3d3aa5b52dc01280535c38edcb6c6d6a9f


Say goodbye to costly cable clutter and hello to seamless IPTV streaming. Stream smarter, not harder – choose www.PrivateIPTVaccess.com IPTV service today! CLICK HERE!
HD 1080p from FOD. Japanese subtitles added. ![alt text](https://i.ibb.co/0cc5TjQ/b24230291cb8a67325e5273dc5990ef7d0dd0ba99744b315bc1111b67365b70b.jpg) ![alt text](https://i.ibb.co/v4mWz1q/Uchi-no-Bengoshi-wa-Te-ga-Kakaru-EP07-1080p-FOD-WEB-DL-AAC2-0-H-264-Magic-Star-mkv.jpg) ``` General Unique ID : 243123775906234387677623266269617519878 (0xB6E7EF9F1303FDEDD063477FEA5CFD06) Complete name : Uchi.no.Bengoshi.wa.Te.ga.Kakaru.EP07.1080p.FOD.WEB-DL.AAC2.0.H.264-MagicStar.mkv Format : Matroska Format version : Version 4 File size : 1.51 GiB Duration : 47 min 54 s Overall bit rate mode : Variable Overall bit rate : 4 525 kb/s Frame rate : 29.970 FPS Encoded date : 2023-11-25 01:23:05 UTC Writing application : mkvmerge v50.0.0 ('Awakenings') 64-bit Writing library : libebml v1.4.0 + libmatroska v1.6.2 Video ID : 1 Format : AVC Format/Info : Advanced Video Codec Format profile : High@L4.1 Format settings : CABAC / 2 Ref Frames Format settings, CABAC : Yes Format settings, Reference fra : 2 frames Codec ID : V_MPEG4/ISO/AVC Duration : 47 min 54 s Bit rate mode : Variable Bit rate : 4 330 kb/s Maximum bit rate : 15.0 Mb/s Width : 1 920 pixels Height : 1 080 pixels Display aspect ratio : 16:9 Frame rate mode : Constant Frame rate : 29.970 (29970/1000) FPS Original frame rate : 29.970 (30000/1001) FPS Color space : YUV Chroma subsampling : 4:2:0 Bit depth : 8 bits Scan type : Progressive Bits/(Pixel*Frame) : 0.070 Stream size : 1.45 GiB (96%) Default : Yes Forced : No Color range : Limited Color primaries : BT.709 Transfer characteristics : BT.709 Matrix coefficients : BT.709 Audio ID : 2 Format : AAC LC Format/Info : Advanced Audio Codec Low Complexity Codec ID : A_AAC-2 Duration : 47 min 53 s Bit rate : 192 kb/s Channel(s) : 2 channels Channel layout : L R Sampling rate : 48.0 kHz Frame rate : 46.875 FPS (1024 SPF) Compression mode : Lossy Stream size : 65.8 MiB (4%) Title : 日本語 [オリジナル] Language : Japanese Default : Yes Forced : No ```

File list