Spread the love, not just the word! Give your friends the gift of reliable IPTV by referring them to PrivateIPTVAccess.com

[MagicStar] Tengu no Daidokoro EP08 [WEBDL] [1080p] [AMZN] [JPN_SUB]

Category:
Date:
2023-11-25 01:56 UTC
Submitter:
Seeders:
92
Information:
Leechers:
1
File size:
1.2 GiB
Completed:
325
Info hash:
728145ad5de889673e0cbd69748a6e02f3777d9e
HD 1080p from Prime Video. Use CBR bitrate mode. Japanese subtitles added. ************** We are planning to upload all Prime Video Japan Dramas and Movies, we need your Support! ************** Support Us Ali (Zhifubao / QR code): https://i.ibb.co/FWV2ggm/1660626347125.png PayPalMe: https://www.paypal.com/paypalme/sakuragikenji ETH (ERC20): 0xea3286E176099E8C9aBaf25A0edf231374C04E89 USDT (BTC / OMNI): 1Lemw6fu5vG3NdvWGxDxsPX7T7yUb3rNzu ************** ![alt text](https://i.ibb.co/sgvGHsr/b0e36a23d80ec081687b4f9d6a10bed0583c45f3af26b2901ef5cee96c97d057.jpg) ![alt text](https://i.ibb.co/yqGLL9F/Tengu-no-Daidokoro-EP08-1080p-AMZN-WEB-DL-DDP2-0-H-264-Magic-Star-mkv.jpg) ``` General Unique ID : 87111810980885772859689436173219508844 (0x41891FE10D9CA7FB335E1DAC3419B26C) Complete name : Tengu.no.Daidokoro.EP08.1080p.AMZN.WEB-DL.DDP2.0.H.264-MagicStar.mkv Format : Matroska Format version : Version 4 File size : 1.21 GiB Duration : 24 min 22 s Overall bit rate mode : Constant Overall bit rate : 7 116 kb/s Frame rate : 29.970 FPS Encoded date : 2023-11-24 23:44:11 UTC Writing application : mkvmerge v50.0.0 ('Awakenings') 64-bit Writing library : libebml v1.4.0 + libmatroska v1.6.2 Cover : Yes Attachments : cover.png Video ID : 1 Format : AVC Format/Info : Advanced Video Codec Format profile : High@L4 Format settings : CABAC / 4 Ref Frames Format settings, CABAC : Yes Format settings, Reference fra : 4 frames Codec ID : V_MPEG4/ISO/AVC Duration : 24 min 21 s Bit rate mode : Constant Bit rate : 6 887 kb/s Nominal bit rate : 10 000 kb/s Width : 1 920 pixels Height : 1 080 pixels Display aspect ratio : 16:9 Frame rate mode : Constant Frame rate : 29.970 (29970/1000) FPS Original frame rate : 29.970 (30000/1001) FPS Color space : YUV Chroma subsampling : 4:2:0 Bit depth : 8 bits Scan type : Progressive Bits/(Pixel*Frame) : 0.111 Stream size : 1.17 GiB (97%) Default : Yes Forced : No Color range : Limited Color primaries : BT.709 Transfer characteristics : BT.709 Matrix coefficients : BT.709 Audio ID : 2 Format : E-AC-3 Format/Info : Enhanced AC-3 Commercial name : Dolby Digital Plus Codec ID : A_EAC3 Duration : 24 min 22 s Bit rate mode : Constant Bit rate : 224 kb/s Channel(s) : 2 channels Channel layout : L R Sampling rate : 48.0 kHz Frame rate : 31.250 FPS (1536 SPF) Compression mode : Lossy Stream size : 39.0 MiB (3%) Title : 日本語 [オリジナル] Language : Japanese Service kind : Complete Main Default : Yes Forced : No ```

File list