Spread the love, not just the word! Give your friends the gift of reliable IPTV by referring them to PrivateIPTVAccess.com

[MagicStar] Kaettekitara Ippai Shite. EP06 [WEBDL] [1080p] [JPN_SUB]

Category:
Date:
2023-11-25 01:56 UTC
Submitter:
Seeders:
84
Information:
Leechers:
0
File size:
434.2 MiB
Completed:
1002
Info hash:
680f08a16b255691a6374b942e220feee092b051
HD 1080p from TVer. Japanese subtitles added. ![alt text](https://i.ibb.co/BCpLFkn/Ippaishite.jpg) ![alt text](https://i.ibb.co/0MD1kpd/Magic-Star-Kaettekitara-Ippai-Shite-EP06-WEBDL-1080p-mkv.jpg) ``` General Unique ID : 103300791051277597978415131971125988431 (0x4DB702389EC01F87C02B284EDE074C4F) Complete name : [MagicStar] Kaettekitara Ippai Shite. EP06 [WEBDL] [1080p].mkv Format : Matroska Format version : Version 4 File size : 434 MiB Duration : 23 min 34 s Overall bit rate : 2 576 kb/s Frame rate : 29.970 FPS Encoded date : 2023-11-24 20:20:50 UTC Writing application : mkvmerge v50.0.0 ('Awakenings') 64-bit Writing library : libebml v1.4.0 + libmatroska v1.6.2 Video ID : 1 Format : AVC Format/Info : Advanced Video Codec Format profile : High@L4 Format settings : CABAC / 4 Ref Frames Format settings, CABAC : Yes Format settings, Reference fra : 4 frames Codec ID : V_MPEG4/ISO/AVC Duration : 23 min 34 s Bit rate : 2 382 kb/s Width : 1 920 pixels Height : 1 080 pixels Display aspect ratio : 16:9 Frame rate mode : Constant Frame rate : 29.970 (29970/1000) FPS Original frame rate : 29.970 (30000/1001) FPS Color space : YUV Chroma subsampling : 4:2:0 Bit depth : 8 bits Scan type : Progressive Bits/(Pixel*Frame) : 0.038 Stream size : 401 MiB (92%) Default : Yes Forced : No Color range : Limited Color primaries : BT.709 Transfer characteristics : BT.709 Matrix coefficients : BT.709 Audio ID : 2 Format : AAC LC Format/Info : Advanced Audio Codec Low Complexity Codec ID : A_AAC-2 Duration : 23 min 34 s Bit rate : 192 kb/s Channel(s) : 2 channels Channel layout : L R Sampling rate : 48.0 kHz Frame rate : 46.875 FPS (1024 SPF) Compression mode : Lossy Stream size : 32.3 MiB (7%) Title : 日本語 [オリジナル] Language : Japanese Default : Yes Forced : No ```

File list