Spread the love, not just the word! Give your friends the gift of reliable IPTV by referring them to PrivateIPTVAccess.com

[MagicStar] Black Familia ~ Shindou-Ke no Fukushuu ~ EP08 [WEBDL] [1080p] [HULU] [JPN_SUB]

Category:
Date:
2023-11-25 01:56 UTC
Submitter:
Seeders:
60
Information:
Leechers:
0
File size:
910.2 MiB
Completed:
1122
Info hash:
5b6829baf18255b54fb8248af8d337d99f0df2f2


Say goodbye to costly cable clutter and hello to seamless IPTV streaming. Stream smarter, not harder – choose www.PrivateIPTVaccess.com IPTV service today! CLICK HERE!
HD 1080p from HULU JAPAN. ![alt text](https://i.ibb.co/9gBVP1r/482b2ed8-febd-41c3-8bbc-93c0bf6562d7b.jpg) ![alt text](https://i.ibb.co/D8N49T6/Black-Familia-Shindou-Ke-no-Fukushuu-EP08-1080p-HULU-WEB-DL-AAC2-0-H-264-Magic-Star-mkv.jpg) ``` General Unique ID : 147925574402096804236254990632588943712 (0x6F496DE87368E7B3204E0CFCCB342160) Complete name : Black.Familia.Shindou.Ke.no.Fukushuu.EP08.1080p.HULU.WEB-DL.AAC2.0.H.264-MagicStar.mkv Format : Matroska Format version : Version 4 File size : 910 MiB Duration : 42 min 17 s Overall bit rate : 3 009 kb/s Frame rate : 29.970 FPS Encoded date : 2023-11-24 22:42:48 UTC Writing application : mkvmerge v50.0.0 ('Awakenings') 64-bit Writing library : libebml v1.4.0 + libmatroska v1.6.2 Cover : Yes Attachments : cover.png Video ID : 1 Format : AVC Format/Info : Advanced Video Codec Format profile : High@L4 Format settings : CABAC / 4 Ref Frames Format settings, CABAC : Yes Format settings, Reference fra : 4 frames Codec ID : V_MPEG4/ISO/AVC Duration : 42 min 17 s Bit rate : 2 753 kb/s Width : 1 920 pixels Height : 1 080 pixels Display aspect ratio : 16:9 Frame rate mode : Constant Frame rate : 29.970 (29970/1000) FPS Original frame rate : 29.970 (30000/1001) FPS Color space : YUV Chroma subsampling : 4:2:0 Bit depth : 8 bits Scan type : Progressive Bits/(Pixel*Frame) : 0.044 Stream size : 833 MiB (91%) Default : Yes Forced : No Color range : Limited Color primaries : BT.709 Transfer characteristics : BT.709 Matrix coefficients : BT.709 Audio ID : 2 Format : AAC LC Format/Info : Advanced Audio Codec Low Complexity Codec ID : A_AAC-2 Duration : 42 min 17 s Bit rate : 253 kb/s Channel(s) : 2 channels Channel layout : L R Sampling rate : 48.0 kHz Frame rate : 46.875 FPS (1024 SPF) Compression mode : Lossy Stream size : 76.6 MiB (8%) Title : 日本語 [オリジナル] Language : Japanese Default : Yes Forced : No ```

File list