Spread the love, not just the word! Give your friends the gift of reliable IPTV by referring them to PrivateIPTVAccess.com

[MagicStar] Pocket ni Bouken wo Tsumekonde EP06 [WEBDL] [1080p]

Category:
Date:
2023-11-25 01:55 UTC
Submitter:
Seeders:
91
Information:
Leechers:
1
File size:
450.0 MiB
Completed:
702
Info hash:
18cbf6186a8b6ce1ff95c9dbd1d8fd285d7f7f10
HD 1080p from TVer. Added MEGA Link (If the torrent speed is slow, try this http download method.): https://mega.nz/folder/nr4hxLRK#jbVgG288e9UGc7no0-f-0w ![alt text](https://i.ibb.co/zNrZFGy/poketsume-pg-02.jpg) ![alt text](https://i.ibb.co/qBxy0Dt/Magic-Star-Pocket-ni-Bouken-wo-Tsumekonde-EP06-WEBDL-1080p-mkv.jpg) ``` General Unique ID : 187612753214844551728337920400508972323 (0x8D24E6E5502720E36B4E918D8571ED23) Complete name : [MagicStar] Pocket ni Bouken wo Tsumekonde EP06 [WEBDL] [1080p].mkv Format : Matroska Format version : Version 4 File size : 450 MiB Duration : 24 min 36 s Overall bit rate mode : Variable Overall bit rate : 2 557 kb/s Frame rate : 29.970 FPS Encoded date : 2023-11-24 20:19:12 UTC Writing application : mkvmerge v50.0.0 ('Awakenings') 64-bit Writing library : libebml v1.4.0 + libmatroska v1.6.2 Video ID : 1 Format : AVC Format/Info : Advanced Video Codec Format profile : High@L4 Format settings : CABAC / 4 Ref Frames Format settings, CABAC : Yes Format settings, Reference fra : 4 frames Codec ID : V_MPEG4/ISO/AVC Duration : 24 min 36 s Bit rate mode : Variable Bit rate : 2 364 kb/s Maximum bit rate : 3 554 kb/s Width : 1 920 pixels Height : 1 080 pixels Display aspect ratio : 16:9 Frame rate mode : Constant Frame rate : 29.970 (29970/1000) FPS Original frame rate : 29.970 (30000/1001) FPS Color space : YUV Chroma subsampling : 4:2:0 Bit depth : 8 bits Scan type : Progressive Bits/(Pixel*Frame) : 0.038 Stream size : 416 MiB (92%) Default : Yes Forced : No Color range : Limited Color primaries : BT.709 Transfer characteristics : BT.709 Matrix coefficients : BT.709 Audio ID : 2 Format : AAC LC Format/Info : Advanced Audio Codec Low Complexity Codec ID : A_AAC-2 Duration : 24 min 36 s Bit rate : 192 kb/s Channel(s) : 2 channels Channel layout : L R Sampling rate : 48.0 kHz Frame rate : 46.875 FPS (1024 SPF) Compression mode : Lossy Stream size : 33.6 MiB (7%) Title : 日本語 [オリジナル] Language : Japanese Default : Yes Forced : No ```

File list

Thanks. Çok teşekkür ederiz :) Türkçe Pokemon