Spread the love, not just the word! Give your friends the gift of reliable IPTV by referring them to PrivateIPTVAccess.com

[MagicStar] Yuria Sensei no Akai Ito EP06 [WEBDL] [1080p] [ABEMA-TV] [JPN_SUB] [Audio Description]

Category:
Date:
2023-11-25 01:54 UTC
Submitter:
Seeders:
71
Information:
Leechers:
0
File size:
1.3 GiB
Completed:
230
Info hash:
8f2b50df2d3a3b4e8c1c17edd80badc219de721d
HD 1080p from Abema TV. Japanese subtitles added. Audio description. ![alt text](https://i.ibb.co/Z1pgwHy/b59f2c41-6c93-440f-b410-5adaba85d92a.jpg) ![alt text](https://i.ibb.co/8m3LMH0/Yuria-Sensei-no-Akai-Ito-EP06-1080p-ABEMA-TV-WEB-DL-AAC2-0-H-264-Audio-Description-Magic-Star-mkv.jpg) ``` General Unique ID : 193862054898896202349759989290014790920 (0x91D87941D949A3E777F4F2C73E02D508) Complete name : Yuria.Sensei.no.Akai.Ito.EP06.1080p.ABEMA-TV.WEB-DL.AAC2.0.H.264.Audio.Description-MagicStar.mkv Format : Matroska Format version : Version 4 File size : 1.31 GiB Duration : 44 min 46 s Overall bit rate mode : Variable Overall bit rate : 4 202 kb/s Frame rate : 29.970 FPS Encoded date : 2023-11-23 14:59:07 UTC Writing application : mkvmerge v50.0.0 ('Awakenings') 64-bit Writing library : libebml v1.4.0 + libmatroska v1.6.2 Video ID : 1 Format : AVC Format/Info : Advanced Video Codec Format profile : Main@L3.1 Format settings : CABAC / 4 Ref Frames Format settings, CABAC : Yes Format settings, Reference fra : 4 frames Codec ID : V_MPEG4/ISO/AVC Duration : 44 min 46 s Bit rate mode : Variable Bit rate : 4 004 kb/s Maximum bit rate : 40.0 Mb/s Width : 1 920 pixels Height : 1 080 pixels Display aspect ratio : 16:9 Frame rate mode : Constant Frame rate : 29.970 (29970/1000) FPS Original frame rate : 29.970 (30000/1001) FPS Color space : YUV Chroma subsampling : 4:2:0 Bit depth : 8 bits Scan type : Progressive Bits/(Pixel*Frame) : 0.064 Stream size : 1.25 GiB (95%) Default : Yes Forced : No Audio ID : 2 Format : AAC LC Format/Info : Advanced Audio Codec Low Complexity Codec ID : A_AAC-2 Duration : 44 min 46 s Bit rate : 192 kb/s Channel(s) : 2 channels Channel layout : L R Sampling rate : 44.1 kHz Frame rate : 43.066 FPS (1024 SPF) Compression mode : Lossy Stream size : 62.7 MiB (5%) Title : 日本語 [解説放送音声] Language : Japanese Default : Yes Forced : No ```

File list