Spread the love, not just the word! Give your friends the gift of reliable IPTV by referring them to PrivateIPTVAccess.com

[MagicStar] Yuria Sensei no Akai Ito EP06 [WEBDL] [1080p] [ABEMA-TV] [JPN_SUB]

Category:
Date:
2023-11-25 01:54 UTC
Submitter:
Seeders:
72
Information:
Leechers:
0
File size:
1.3 GiB
Completed:
701
Info hash:
403b08823799318503bb70da998ca062517113f4


Say goodbye to costly cable clutter and hello to seamless IPTV streaming. Stream smarter, not harder – choose www.PrivateIPTVaccess.com IPTV service today! CLICK HERE!
HD 1080p from Abema TV. Japanese subtitles added. ![alt text](https://i.ibb.co/Z1pgwHy/b59f2c41-6c93-440f-b410-5adaba85d92a.jpg) ![alt text](https://i.ibb.co/rmPMXkh/Yuria-Sensei-no-Akai-Ito-EP06-1080p-ABEMA-TV-WEB-DL-AAC2-0-H-264-Magic-Star-mkv.jpg) ``` General Unique ID : 302816059738112702322456233155128745642 (0xE3D0407001EA4948840B317C30BC5EAA) Complete name : Yuria.Sensei.no.Akai.Ito.EP06.1080p.ABEMA-TV.WEB-DL.AAC2.0.H.264-MagicStar.mkv Format : Matroska Format version : Version 4 File size : 1.33 GiB Duration : 45 min 23 s Overall bit rate mode : Variable Overall bit rate : 4 200 kb/s Frame rate : 29.970 FPS Encoded date : 2023-11-23 14:58:31 UTC Writing application : mkvmerge v50.0.0 ('Awakenings') 64-bit Writing library : libebml v1.4.0 + libmatroska v1.6.2 Video ID : 1 Format : AVC Format/Info : Advanced Video Codec Format profile : Main@L3.1 Format settings : CABAC / 4 Ref Frames Format settings, CABAC : Yes Format settings, Reference fra : 4 frames Codec ID : V_MPEG4/ISO/AVC Duration : 45 min 23 s Bit rate mode : Variable Bit rate : 4 004 kb/s Maximum bit rate : 40.0 Mb/s Width : 1 920 pixels Height : 1 080 pixels Display aspect ratio : 16:9 Frame rate mode : Constant Frame rate : 29.970 (29970/1000) FPS Original frame rate : 29.970 (30000/1001) FPS Color space : YUV Chroma subsampling : 4:2:0 Bit depth : 8 bits Scan type : Progressive Bits/(Pixel*Frame) : 0.064 Stream size : 1.27 GiB (95%) Default : Yes Forced : No Audio ID : 2 Format : AAC LC Format/Info : Advanced Audio Codec Low Complexity Codec ID : A_AAC-2 Duration : 45 min 23 s Bit rate : 192 kb/s Channel(s) : 2 channels Channel layout : L R Sampling rate : 44.1 kHz Frame rate : 43.066 FPS (1024 SPF) Compression mode : Lossy Stream size : 62.9 MiB (5%) Title : 日本語 [オリジナル] Language : Japanese Default : Yes Forced : No ```

File list