Spread the love, not just the word! Give your friends the gift of reliable IPTV by referring them to PrivateIPTVAccess.com

[MagicStar] Paripi Koumei EP09 [WEBDL] [1080p] [AMZN] [JPN_SUB] [Audio Description]

Category:
Date:
2023-11-23 14:31 UTC
Submitter:
Seeders:
84
Information:
Leechers:
1
File size:
2.8 GiB
Completed:
484
Info hash:
3af96f91d892faeff30ad0359b1812b162a5eed1
HD 1080p from Prime Video. Use CBR bitrate mode. Japanese subtitles added (Includes original voice version). Audio description. ************** We are planning to upload all Prime Video Japan Dramas and Movies, we need your Support! ************** Support Us Ali (Zhifubao / QR code): https://i.ibb.co/FWV2ggm/1660626347125.png PayPalMe: https://www.paypal.com/paypalme/sakuragikenji ETH (ERC20): 0xea3286E176099E8C9aBaf25A0edf231374C04E89 USDT (BTC / OMNI): 1Lemw6fu5vG3NdvWGxDxsPX7T7yUb3rNzu ************** ![alt text](https://i.ibb.co/LQhPJmS/7aaeb4f584d79bef4cfc458e03359b8870a21c3cb6eaef8a60adddba82f6c325.jpg) ![alt text](https://i.ibb.co/x38Nfmq/Paripi-Koumei-EP09-1080p-AMZN-WEB-DL-DDP2-0-H-264-Audio-Description-Magic-Star-mkv.jpg) ``` General Unique ID : 284527451159928745813477126843257778707 (0xD60DFE6AEA7D864B8F428BF5F562F213) Complete name : Paripi.Koumei.EP09.1080p.AMZN.WEB-DL.DDP2.0.H.264.Audio.Description-MagicStar.mkv Format : Matroska Format version : Version 4 File size : 2.75 GiB Duration : 44 min 33 s Overall bit rate mode : Constant Overall bit rate : 8 842 kb/s Frame rate : 29.970 FPS Encoded date : 2023-11-23 14:26:49 UTC Writing application : mkvmerge v50.0.0 ('Awakenings') 64-bit Writing library : libebml v1.4.0 + libmatroska v1.6.2 Cover : Yes Attachments : cover.png Video ID : 1 Format : AVC Format/Info : Advanced Video Codec Format profile : High@L4 Format settings : CABAC / 4 Ref Frames Format settings, CABAC : Yes Format settings, Reference fra : 4 frames Codec ID : V_MPEG4/ISO/AVC Duration : 44 min 33 s Bit rate mode : Constant Bit rate : 8 604 kb/s Nominal bit rate : 10 000 kb/s Width : 1 920 pixels Height : 1 080 pixels Display aspect ratio : 16:9 Frame rate mode : Constant Frame rate : 29.970 (29970/1000) FPS Original frame rate : 29.970 (30000/1001) FPS Color space : YUV Chroma subsampling : 4:2:0 Bit depth : 8 bits Scan type : Progressive Bits/(Pixel*Frame) : 0.138 Stream size : 2.68 GiB (97%) Default : Yes Forced : No Color range : Limited Color primaries : BT.709 Transfer characteristics : BT.709 Matrix coefficients : BT.709 Audio ID : 2 Format : E-AC-3 Format/Info : Enhanced AC-3 Commercial name : Dolby Digital Plus Codec ID : A_EAC3 Duration : 44 min 33 s Bit rate mode : Constant Bit rate : 224 kb/s Channel(s) : 2 channels Channel layout : L R Sampling rate : 48.0 kHz Frame rate : 31.250 FPS (1536 SPF) Compression mode : Lossy Stream size : 71.4 MiB (3%) Title : 日本語 [解説放送音声] Language : Japanese Service kind : Complete Main Default : Yes Forced : No ```

File list