Spread the love, not just the word! Give your friends the gift of reliable IPTV by referring them to PrivateIPTVAccess.com

[MagicStar] Kotatsu ga Nai Ie EP06 [WEBDL] [1080p] [HULU] [JPN_SUB]

Category:
Date:
2023-11-23 05:03 UTC
Submitter:
Seeders:
60
Information:
Leechers:
0
File size:
2.2 GiB
Completed:
1204
Info hash:
630128a3e95ca43d00f23fd639484eb152a9e752


Say goodbye to costly cable clutter and hello to seamless IPTV streaming. Stream smarter, not harder – choose www.PrivateIPTVaccess.com IPTV service today! CLICK HERE!
HD 1080p from HULU JAPAN. ![alt text](https://i.ibb.co/9ycdCPG/1e3c14f6-483e-4913-abd3-fdd7707bf29eb.jpg) ![alt text](https://i.ibb.co/94qG24Q/Kotatsu-ga-Nai-Ie-EP06-1080p-HULU-WEB-DL-AAC2-0-H-264-Magic-Star-mkv.jpg) ``` General Unique ID : 113512268890813500465830995603073870778 (0x5565AAF30DEB193FA2BA8A94DD452BBA) Complete name : Kotatsu.ga.Nai.Ie.EP06.1080p.HULU.WEB-DL.AAC2.0.H.264-MagicStar.mkv Format : Matroska Format version : Version 4 File size : 2.22 GiB Duration : 51 min 33 s Overall bit rate : 6 172 kb/s Frame rate : 29.970 FPS Encoded date : 2023-11-23 04:51:17 UTC Writing application : mkvmerge v50.0.0 ('Awakenings') 64-bit Writing library : libebml v1.4.0 + libmatroska v1.6.2 Cover : Yes Attachments : cover.png Video ID : 1 Format : AVC Format/Info : Advanced Video Codec Format profile : High@L4 Format settings : CABAC / 4 Ref Frames Format settings, CABAC : Yes Format settings, Reference fra : 4 frames Codec ID : V_MPEG4/ISO/AVC Duration : 51 min 32 s Bit rate : 5 916 kb/s Width : 1 920 pixels Height : 1 080 pixels Display aspect ratio : 16:9 Frame rate mode : Constant Frame rate : 29.970 (29970/1000) FPS Original frame rate : 29.970 (30000/1001) FPS Color space : YUV Chroma subsampling : 4:2:0 Bit depth : 8 bits Scan type : Progressive Bits/(Pixel*Frame) : 0.095 Stream size : 2.13 GiB (96%) Default : Yes Forced : No Color range : Limited Color primaries : BT.709 Transfer characteristics : BT.709 Matrix coefficients : BT.709 Audio ID : 2 Format : AAC LC Format/Info : Advanced Audio Codec Low Complexity Codec ID : A_AAC-2 Duration : 51 min 33 s Bit rate : 253 kb/s Channel(s) : 2 channels Channel layout : L R Sampling rate : 48.0 kHz Frame rate : 46.875 FPS (1024 SPF) Compression mode : Lossy Stream size : 93.4 MiB (4%) Title : 日本語 [オリジナル] Language : Japanese Default : Yes Forced : No ```

File list

I saw you shared Mirrorman's episode 1 and pilot in HD in another torrent site. That torrent is dead, but I'm interested in getting these episodes. Could you please reseed them or/and upload them here at nyaa too? Thanks in advance. By the way, I'm also interested in getting the TS files of your still have them.