Spread the love, not just the word! Give your friends the gift of reliable IPTV by referring them to PrivateIPTVAccess.com

[MagicStar] Paripi Koumei EP09 [WEBDL] [1080p] [FOD] [JPN_SUB]

Category:
Date:
2023-11-23 04:34 UTC
Submitter:
Seeders:
86
Information:
Leechers:
1
File size:
1.9 GiB
Completed:
1416
Info hash:
8a53abb9f439c8f17539be08a21f3382cd051e19
HD 1080p from FOD. Japanese subtitles added. ![alt text](https://i.ibb.co/LQhPJmS/7aaeb4f584d79bef4cfc458e03359b8870a21c3cb6eaef8a60adddba82f6c325.jpg) ![alt text](https://i.ibb.co/NmK3hJH/Paripi-Koumei-EP09-1080p-FOD-WEB-DL-AAC2-0-H-264-Magic-Star-mkv.jpg) ``` General Unique ID : 201981767675421146359515956020703626154 (0x97F44601629A3044A3CE1126573F83AA) Complete name : Paripi.Koumei.EP09.1080p.FOD.WEB-DL.AAC2.0.H.264-MagicStar.mkv Format : Matroska Format version : Version 2 File size : 1.92 GiB Duration : 44 min 27 s Overall bit rate mode : Variable Overall bit rate : 6 177 kb/s Frame rate : 29.970 FPS Encoded date : 2023-11-23 00:49:36 UTC Writing application : mkvmerge v8.5.2 ('Crosses') 32bit Writing library : libebml v1.3.3 + libmatroska v1.4.4 Video ID : 1 Format : AVC Format/Info : Advanced Video Codec Format profile : High@L4.1 Format settings : CABAC / 2 Ref Frames Format settings, CABAC : Yes Format settings, Reference fra : 2 frames Codec ID : V_MPEG4/ISO/AVC Duration : 44 min 27 s Bit rate mode : Variable Bit rate : 5 983 kb/s Maximum bit rate : 15.0 Mb/s Width : 1 920 pixels Height : 1 080 pixels Display aspect ratio : 16:9 Frame rate mode : Constant Frame rate : 29.970 (30000/1001) FPS Color space : YUV Chroma subsampling : 4:2:0 Bit depth : 8 bits Scan type : Progressive Bits/(Pixel*Frame) : 0.096 Stream size : 1.86 GiB (97%) Default : Yes Forced : No Color range : Limited Color primaries : BT.709 Transfer characteristics : BT.709 Matrix coefficients : BT.709 Audio ID : 2 Format : AAC LC Format/Info : Advanced Audio Codec Low Complexity Codec ID : A_AAC-2 Duration : 44 min 27 s Bit rate : 192 kb/s Channel(s) : 2 channels Channel layout : L R Sampling rate : 48.0 kHz Frame rate : 46.875 FPS (1024 SPF) Compression mode : Lossy Stream size : 61.1 MiB (3%) Title : 日本語 [オリジナル] Language : Japanese Default : Yes Forced : No ```

File list