Spread the love, not just the word! Give your friends the gift of reliable IPTV by referring them to PrivateIPTVAccess.com

[MagicStar] Aibou Season22 EP06 [WEBDL] [1080p] [ABEMA-TV] [JPN_SUB]

Category:
Date:
2023-11-23 04:34 UTC
Submitter:
Seeders:
81
Information:
Leechers:
1
File size:
1.3 GiB
Completed:
610
Info hash:
fd467c9995e0e59c3e59b8c462b0bfdba1f7d427


Say goodbye to costly cable clutter and hello to seamless IPTV streaming. Stream smarter, not harder – choose www.PrivateIPTVaccess.com IPTV service today! CLICK HERE!
HD 1080p from Abema TV. Japanese subtitles added. ![alt text](https://i.ibb.co/7kY8TJp/25860dc4-d204-4b8e-9b7c-dfcd1f70b811.jpg) ![alt text](https://i.ibb.co/vs8vWqh/Aibou-S22-EP06-1080p-ABEMA-TV-WEB-DL-AAC2-0-H-264-Magic-Star-mkv.jpg) ``` General Unique ID : 84131842791243299445444562329423991883 (0x3F4B341A986BA877C738010F768A544B) Complete name : Aibou.S22EP06.1080p.ABEMA-TV.WEB-DL.AAC2.0.H.264-MagicStar.mkv Format : Matroska Format version : Version 4 File size : 1.34 GiB Duration : 45 min 38 s Overall bit rate mode : Variable Overall bit rate : 4 202 kb/s Frame rate : 29.970 FPS Encoded date : 2023-11-23 04:24:44 UTC Writing application : mkvmerge v50.0.0 ('Awakenings') 64-bit Writing library : libebml v1.4.0 + libmatroska v1.6.2 Video ID : 1 Format : AVC Format/Info : Advanced Video Codec Format profile : Main@L3.1 Format settings : CABAC / 4 Ref Frames Format settings, CABAC : Yes Format settings, Reference fra : 4 frames Codec ID : V_MPEG4/ISO/AVC Duration : 45 min 38 s Bit rate mode : Variable Bit rate : 4 005 kb/s Maximum bit rate : 40.0 Mb/s Width : 1 920 pixels Height : 1 080 pixels Display aspect ratio : 16:9 Frame rate mode : Constant Frame rate : 29.970 (29970/1000) FPS Original frame rate : 29.970 (30000/1001) FPS Color space : YUV Chroma subsampling : 4:2:0 Bit depth : 8 bits Scan type : Progressive Bits/(Pixel*Frame) : 0.064 Stream size : 1.28 GiB (95%) Default : Yes Forced : No Audio ID : 2 Format : AAC LC Format/Info : Advanced Audio Codec Low Complexity Codec ID : A_AAC-2 Duration : 45 min 38 s Bit rate : 192 kb/s Channel(s) : 2 channels Channel layout : L R Sampling rate : 44.1 kHz Frame rate : 43.066 FPS (1024 SPF) Compression mode : Lossy Stream size : 63.6 MiB (5%) Title : 日本語 [オリジナル] Language : Japanese Default : Yes Forced : No ```

File list