Spread the love, not just the word! Give your friends the gift of reliable IPTV by referring them to PrivateIPTVAccess.com

[MagicStar] My Home Hero EP06 [WEBDL] [1080p] [JPN_SUB]

Category:
Date:
2023-11-23 03:58 UTC
Submitter:
Seeders:
74
Information:
Leechers:
0
File size:
500.3 MiB
Completed:
1581
Info hash:
a85b51b6285d6c6910e744c64fe0867cc3115b24


Say goodbye to costly cable clutter and hello to seamless IPTV streaming. Stream smarter, not harder – choose www.PrivateIPTVaccess.com IPTV service today! CLICK HERE!
HD 1080p from TVer. Japanese subtitles added. ![alt text](https://i.ibb.co/09rDgDC/myhomehero.jpg) ![alt text](https://i.ibb.co/zJGF4JG/Magic-Star-My-Home-Hero-EP06-WEBDL-1080p-mkv.jpg) ``` General Unique ID : 254869116847209965085794691184090421085 (0xBFBE01A3A9DC531258EB446DB42C175D) Complete name : [MagicStar] My Home Hero EP06 [WEBDL] [1080p].mkv Format : Matroska Format version : Version 4 File size : 500 MiB Duration : 24 min 6 s Overall bit rate : 2 902 kb/s Frame rate : 29.970 FPS Encoded date : 2023-11-23 03:49:37 UTC Writing application : mkvmerge v50.0.0 ('Awakenings') 64-bit Writing library : libebml v1.4.0 + libmatroska v1.6.2 Video ID : 1 Format : AVC Format/Info : Advanced Video Codec Format profile : High@L4 Format settings : CABAC / 4 Ref Frames Format settings, CABAC : Yes Format settings, Reference fra : 4 frames Codec ID : V_MPEG4/ISO/AVC Duration : 24 min 5 s Bit rate : 2 708 kb/s Width : 1 920 pixels Height : 1 080 pixels Display aspect ratio : 16:9 Frame rate mode : Constant Frame rate : 29.970 (29970/1000) FPS Original frame rate : 29.970 (30000/1001) FPS Color space : YUV Chroma subsampling : 4:2:0 Bit depth : 8 bits Scan type : Progressive Bits/(Pixel*Frame) : 0.044 Stream size : 467 MiB (93%) Default : Yes Forced : No Audio ID : 2 Format : AAC LC Format/Info : Advanced Audio Codec Low Complexity Codec ID : A_AAC-2 Duration : 24 min 6 s Bit rate : 192 kb/s Channel(s) : 2 channels Channel layout : L R Sampling rate : 48.0 kHz Frame rate : 46.875 FPS (1024 SPF) Compression mode : Lossy Stream size : 33.0 MiB (7%) Title : 日本語 [オリジナル] Language : Japanese Default : Yes Forced : No ```

File list