[UF+] Goblins Slayer II 06-07 [WEBrip 720p]

Category:
Date:
2023-11-21 02:06 UTC
Submitter:
Seeders:
92
Information:
No information.
Leechers:
2
File size:
629.2 MiB
Completed:
1
Info hash:
5d1230ccbd8a23cf9fe4ad469bd2355e31602945
**Ficha T├ęcnica** Format : HEVC Format/Info : High Efficiency Video Coding Format profile : Format Range@L5.1@High Codec ID : V_MPEGH/ISO/HEVC Duration : 23 min 40 s Bit rate : 1 280 kb/s Width : 1 280 pixels Height : 720 pixels Display aspect ratio : 16:9 Frame rate mode : Constant Frame rate : 23.976 (24000/1001) FPS Color space : YUV Chroma subsampling : 4:2:0 Bit depth : 12 bits Bits/(Pixel*Frame) : 0.058 Stream size : 217 MiB (81%) Writing library : x265 12bit Audio Format : AC-3 Format/Info : Audio Coding 3 Commercial name : Dolby Digital Codec ID : A_AC3 Duration : 23 min 40 s Bit rate mode : Constant Bit rate : 192 kb/s Channel(s) : 2 channels Channel layout : L R Sampling rate : 44.1 kHz Frame rate : 28.711 FPS (1536 SPF) Compression mode : Lossy Stream size : 32.5 MiB (12%) **Capturas** ![](https://i40.servimg.com/u/f40/17/76/27/39/gsiic022.jpg) ![](https://i40.servimg.com/u/f40/17/76/27/39/gsiic023.jpg) ![](https://i40.servimg.com/u/f40/17/76/27/39/gsiic024.jpg) ![](https://i40.servimg.com/u/f40/17/76/27/39/gsiic025.jpg) ![](https://i40.servimg.com/u/f40/17/76/27/39/gsiic026.jpg) ![](https://i40.servimg.com/u/f40/17/76/27/39/gsiic027.jpg)

File list