Spread the love, not just the word! Give your friends the gift of reliable IPTV by referring them to PrivateIPTVAccess.com

[MagicStar] Kouiu no ga Ii EP04 [WEBDL] [1080p] [JPN_SUB]

Category:
Date:
2023-11-19 22:37 UTC
Submitter:
Seeders:
61
Information:
Leechers:
0
File size:
481.2 MiB
Completed:
1038
Info hash:
9f714fa58456f2905b3cba3c6a3f9d6129251a53


Say goodbye to costly cable clutter and hello to seamless IPTV streaming. Stream smarter, not harder – choose www.PrivateIPTVaccess.com IPTV service today! CLICK HERE!
HD 1080p from TVer. Japanese subtitles added. ![alt text](https://i.ibb.co/NTsyQgm/Kouiunogaii-1.jpg) ![alt text](https://i.ibb.co/zr4VFVr/Magic-Star-Kouiu-no-ga-Ii-EP04-WEBDL-1080p-mkv.jpg) ``` General Unique ID : 43891592504939675469178494736296930519 (0x210536965213E10E7905F0984C556CD7) Complete name : [MagicStar] Kouiu no ga Ii EP04 [WEBDL] [1080p].mkv Format : Matroska Format version : Version 4 File size : 481 MiB Duration : 23 min 37 s Overall bit rate mode : Variable Overall bit rate : 2 848 kb/s Frame rate : 29.970 FPS Encoded date : 2023-11-19 21:30:21 UTC Writing application : mkvmerge v50.0.0 ('Awakenings') 64-bit Writing library : libebml v1.4.0 + libmatroska v1.6.2 Video ID : 1 Format : AVC Format/Info : Advanced Video Codec Format profile : High@L4 Format settings : CABAC / 4 Ref Frames Format settings, CABAC : Yes Format settings, Reference fra : 4 frames Codec ID : V_MPEG4/ISO/AVC Duration : 23 min 37 s Bit rate mode : Variable Bit rate : 2 654 kb/s Maximum bit rate : 3 997 kb/s Width : 1 920 pixels Height : 1 080 pixels Display aspect ratio : 16:9 Frame rate mode : Constant Frame rate : 29.970 (29970/1000) FPS Original frame rate : 29.970 (30000/1001) FPS Color space : YUV Chroma subsampling : 4:2:0 Bit depth : 8 bits Scan type : Progressive Bits/(Pixel*Frame) : 0.043 Stream size : 448 MiB (93%) Default : Yes Forced : No Color range : Limited Color primaries : BT.709 Transfer characteristics : BT.709 Matrix coefficients : BT.709 Audio ID : 2 Format : AAC LC Format/Info : Advanced Audio Codec Low Complexity Codec ID : A_AAC-2 Duration : 23 min 37 s Bit rate : 192 kb/s Channel(s) : 2 channels Channel layout : L R Sampling rate : 48.0 kHz Frame rate : 46.875 FPS (1024 SPF) Compression mode : Lossy Stream size : 32.3 MiB (7%) Title : 日本語 [オリジナル] Language : Japanese Default : Yes Forced : No ```

File list