Spread the love, not just the word! Give your friends the gift of reliable IPTV by referring them to PrivateIPTVAccess.com

[MagicStar] Tanshin Hanabi EP06 [WEBDL] [1080p] [JPN_SUB]

Category:
Date:
2023-11-19 13:01 UTC
Submitter:
Seeders:
90
File size:
496.7 MiB
Completed:
739
Info hash:
ab3940bab06362e62b165ddeff383a203c5b0a1a


Say goodbye to costly cable clutter and hello to seamless IPTV streaming. Stream smarter, not harder – choose www.PrivateIPTVaccess.com IPTV service today! CLICK HERE!
HD 1080p from TVer. Japanese subtitles added. ![alt text](https://i.ibb.co/DWRYS15/0bc73573-e831-408d-9220-219778db49eb.jpg) ![alt text](https://i.ibb.co/PYdRjxw/Magic-Star-Tanshin-Hanabi-EP06-WEBDL-1080p-mkv.jpg) ``` General Unique ID : 284079478375912172164039792290604914545 (0xD5B7B7A7761B9C2B2D0CDBE859DE1771) Complete name : [MagicStar] Tanshin Hanabi EP06 [WEBDL] [1080p].mkv Format : Matroska Format version : Version 4 File size : 497 MiB Duration : 24 min 13 s Overall bit rate : 2 867 kb/s Frame rate : 29.970 FPS Encoded date : 2023-11-18 21:32:34 UTC Writing application : mkvmerge v50.0.0 ('Awakenings') 64-bit Writing library : libebml v1.4.0 + libmatroska v1.6.2 Video ID : 1 Format : AVC Format/Info : Advanced Video Codec Format profile : High@L4 Format settings : CABAC / 4 Ref Frames Format settings, CABAC : Yes Format settings, Reference fra : 4 frames Codec ID : V_MPEG4/ISO/AVC Duration : 24 min 13 s Bit rate : 2 673 kb/s Width : 1 920 pixels Height : 1 080 pixels Display aspect ratio : 16:9 Frame rate mode : Constant Frame rate : 29.970 (29970/1000) FPS Original frame rate : 29.970 (30000/1001) FPS Color space : YUV Chroma subsampling : 4:2:0 Bit depth : 8 bits Scan type : Progressive Bits/(Pixel*Frame) : 0.043 Stream size : 463 MiB (93%) Default : Yes Forced : No Color range : Limited Matrix coefficients : BT.709 Audio ID : 2 Format : AAC LC Format/Info : Advanced Audio Codec Low Complexity Codec ID : A_AAC-2 Duration : 24 min 13 s Bit rate : 192 kb/s Channel(s) : 2 channels Channel layout : L R Sampling rate : 48.0 kHz Frame rate : 46.875 FPS (1024 SPF) Compression mode : Lossy Stream size : 33.2 MiB (7%) Title : 日本語 [オリジナル] Language : Japanese Default : Yes Forced : No ```

File list