Spread the love, not just the word! Give your friends the gift of reliable IPTV by referring them to PrivateIPTVAccess.com

[MagicStar] EVOL ~ Shobo Nouryoku de, Seigi wo Horobose. ~ EP03 [WEBDL] [1080p] [DMM-TV]

Category:
Date:
2023-11-19 05:41 UTC
Submitter:
Seeders:
70
Information:
Leechers:
1
File size:
1.2 GiB
Completed:
1133
Info hash:
e9bcd438dd98d3f56318ab926e1b90cf67b21faa


Say goodbye to costly cable clutter and hello to seamless IPTV streaming. Stream smarter, not harder – choose www.PrivateIPTVaccess.com IPTV service today! CLICK HERE!
HD 1080p from DMM TV. DMM TV Original Series. ************** We are planning to upload all DMM TV Dramas and Movies, we need your Support! ************** Support Us Ali (Zhifubao / QR code): https://i.ibb.co/FWV2ggm/1660626347125.png PayPalMe: https://www.paypal.com/paypalme/sakuragikenji ETH (ERC20): 0xea3286E176099E8C9aBaf25A0edf231374C04E89 USDT (BTC / OMNI): 1Lemw6fu5vG3NdvWGxDxsPX7T7yUb3rNzu ************** ![alt text](https://i.ibb.co/5xmjnr4/evol-shobo-1.jpg) ![alt text](https://i.ibb.co/yPTZZT6/EVOL-Shobo-Nouryoku-de-Seigi-wo-Horobose-EP03-1080p-DMM-TV-WEB-DL-AAC2-0-H-264-Magic-Star-mkv.jpg) ``` General Unique ID : 172171613770340023944503602041579807340 (0x81870BF179C927DBBE7BBDC8A1A6A26C) Complete name : EVOL.Shobo.Nouryoku.de.Seigi.wo.Horobose.EP03.1080p.DMM-TV.WEB-DL.AAC2.0.H.264-MagicStar.mkv Format : Matroska Format version : Version 2 File size : 1.16 GiB Duration : 42 min 8 s Overall bit rate : 3 941 kb/s Frame rate : 23.976 FPS Encoded date : 2023-11-19 03:50:59 UTC Writing application : mkvmerge v8.5.2 ('Crosses') 32bit Writing library : libebml v1.3.3 + libmatroska v1.4.4 Video ID : 1 Format : AVC Format/Info : Advanced Video Codec Format profile : High@L4 Format settings : CABAC / 4 Ref Frames Format settings, CABAC : Yes Format settings, Reference fra : 4 frames Codec ID : V_MPEG4/ISO/AVC Duration : 42 min 8 s Bit rate : 3 683 kb/s Width : 1 920 pixels Height : 1 080 pixels Display aspect ratio : 16:9 Frame rate mode : Constant Frame rate : 23.976 (24000/1001) FPS Color space : YUV Chroma subsampling : 4:2:0 Bit depth : 8 bits Scan type : Progressive Bits/(Pixel*Frame) : 0.074 Stream size : 1.08 GiB (93%) Writing library : x264 core 164 r3081 19856cc Encoding settings : cabac=1 / ref=4 / deblock=1:0:0 / analyse=0x3:0x131 / me=umh / subme=9 / psy=1 / psy_rd=1.00:0.00 / mixed_ref=1 / me_range=48 / chroma_me=1 / trellis=2 / 8x8dct=1 / cqm=0 / deadzone=21,11 / fast_pskip=1 / chroma_qp_offset=-2 / threads=8 / lookahead_threads=1 / sliced_threads=0 / nr=0 / decimate=1 / interlaced=0 / bluray_compat=0 / stitchable=1 / constrained_intra=0 / bframes=4 / b_pyramid=2 / b_adapt=1 / b_bias=0 / direct=3 / weightb=1 / open_gop=0 / weightp=2 / keyint=240 / keyint_min=48 / scenecut=0 / intra_refresh=0 / rc_lookahead=48 / rc=crf / mbtree=1 / crf=21.7 / qcomp=0.60 / qpmin=6 / qpmax=51 / qpstep=4 / vbv_maxrate=9600 / vbv_bufsize=9600 / crf_max=0.0 / nal_hrd=none / filler=0 / ip_ratio=1.40 / aq=3:1.40 Language : English Default : Yes Forced : No Color range : Limited Color primaries : BT.709 Transfer characteristics : BT.709 Matrix coefficients : BT.709 Audio ID : 2 Format : AAC LC Format/Info : Advanced Audio Codec Low Complexity Codec ID : A_AAC-2 Duration : 42 min 8 s Bit rate : 256 kb/s Channel(s) : 2 channels Channel layout : L R Sampling rate : 48.0 kHz Frame rate : 46.875 FPS (1024 SPF) Compression mode : Lossy Stream size : 77.2 MiB (6%) Title : 日本語 [オリジナル] Language : Japanese Default : Yes Forced : No ```

File list