Spread the love, not just the word! Give your friends the gift of reliable IPTV by referring them to PrivateIPTVAccess.com

[MagicStar] Kusuburi Onna to Sundome Onna EP06 [HDTV] [1080p] [TX] [JPN_SUB]

Category:
Date:
2023-11-19 05:41 UTC
Submitter:
Seeders:
70
File size:
587.6 MiB
Completed:
397
Info hash:
c6bcb1e44533e6dd52a8a65b9265fbfdb66260bf


Say goodbye to costly cable clutter and hello to seamless IPTV streaming. Stream smarter, not harder – choose www.PrivateIPTVaccess.com IPTV service today! CLICK HERE!
HD 1080p from TV Tokyo. Japanese subtitles added. Added MEGA Link (If the torrent speed is slow, try this http download method.): https://mega.nz/folder/CuphgDha#3Y7LEM-iGdqgaKNcv53ygQ Note: Providing Japanese subtitles and encoded sources of TV Tokyo dramas as a reference might be a good start, but we don’t know how long we can continue, it depends on your support. So... ************** Support Us Ali (Zhifubao / QR code): https://i.ibb.co/FWV2ggm/1660626347125.png PayPalMe: https://www.paypal.com/paypalme/sakuragikenji ETH (ERC20): 0xea3286E176099E8C9aBaf25A0edf231374C04E89 USDT (BTC / OMNI): 1Lemw6fu5vG3NdvWGxDxsPX7T7yUb3rNzu ************** ![alt text](https://i.ibb.co/z7GwfJL/D0231002-001.jpg) ![alt text](https://i.ibb.co/3yMKWWk/Kusuburi-Onna-to-Sundome-Onna-EP06-1080p-TX-HDTV-H264-AAC-Magic-Star-mkv.jpg) ``` General Unique ID : 227407861610433549464059731721317300547 (0xAB15293907B491EA87F528A25250B943) Complete name : Kusuburi.Onna.to.Sundome.Onna.EP06.1080p.TX.HDTV.H264.AAC-MagicStar.mkv Format : Matroska Format version : Version 2 File size : 588 MiB Duration : 23 min 45 s Overall bit rate : 3 458 kb/s Frame rate : 29.970 FPS Encoded date : 2023-11-19 02:29:15 UTC Writing application : mkvmerge v8.5.2 ('Crosses') 32bit Writing library : libebml v1.3.3 + libmatroska v1.4.4 Video ID : 1 Format : AVC Format/Info : Advanced Video Codec Format profile : High@L4.1 Format settings : CABAC / 4 Ref Frames Format settings, CABAC : Yes Format settings, Reference fra : 4 frames Codec ID : V_MPEG4/ISO/AVC Duration : 23 min 44 s Bit rate : 3 204 kb/s Width : 1 920 pixels Height : 1 080 pixels Display aspect ratio : 16:9 Frame rate mode : Constant Frame rate : 29.970 (30000/1001) FPS Color space : YUV Chroma subsampling : 4:2:0 Bit depth : 8 bits Scan type : Progressive Bits/(Pixel*Frame) : 0.052 Stream size : 544 MiB (93%) Writing library : x264 core 148 r2638 7599210 Encoding settings : cabac=1 / ref=3 / deblock=1:0:0 / analyse=0x3:0x113 / me=umh / subme=8 / psy=1 / psy_rd=1.00:0.00 / mixed_ref=0 / me_range=16 / chroma_me=1 / trellis=2 / 8x8dct=1 / cqm=0 / deadzone=21,11 / fast_pskip=1 / chroma_qp_offset=-2 / threads=24 / lookahead_threads=4 / sliced_threads=0 / nr=0 / decimate=1 / interlaced=0 / bluray_compat=0 / constrained_intra=0 / bframes=3 / b_pyramid=2 / b_adapt=2 / b_bias=0 / direct=3 / weightb=1 / open_gop=0 / weightp=2 / keyint=300 / keyint_min=29 / scenecut=40 / intra_refresh=0 / rc_lookahead=40 / rc=crf / mbtree=1 / crf=21.0 / qcomp=0.60 / qpmin=0 / qpmax=69 / qpstep=4 / ip_ratio=1.40 / aq=1:1.00 Default : Yes Forced : No Audio ID : 2 Format : AAC LC Format/Info : Advanced Audio Codec Low Complexity Codec ID : A_AAC-2 Duration : 23 min 45 s Bit rate : 252 kb/s Channel(s) : 2 channels Channel layout : L R Sampling rate : 48.0 kHz Frame rate : 46.875 FPS (1024 SPF) Compression mode : Lossy Stream size : 42.8 MiB (7%) Language : Japanese Default : Yes Forced : No ```

File list