Spread the love, not just the word! Give your friends the gift of reliable IPTV by referring them to PrivateIPTVAccess.com

[MagicStar] Himitsu wo Motta Shounentachi EP07 [WEBDL] [1080p] [HULU] [JPN_SUB]

Category:
Date:
2023-11-19 05:41 UTC
Submitter:
Seeders:
91
File size:
616.9 MiB
Completed:
374
Info hash:
2d30c20d9bff64dcebf9862011f2a362778a4674


Say goodbye to costly cable clutter and hello to seamless IPTV streaming. Stream smarter, not harder – choose www.PrivateIPTVaccess.com IPTV service today! CLICK HERE!
HD 1080p from HULU JAPAN. ![alt text](https://i.ibb.co/HTvQX2g/e7754652-a131-4f83-a52b-cb7d1790e33ab.jpg) ![alt text](https://i.ibb.co/4F8gjn0/Himitsu-wo-Motta-Shounentachi-EP07-1080p-HULU-WEB-DL-AAC2-0-H-264-Magic-Star-mkv.jpg) ``` General Unique ID : 298546527697100446306667341528200071765 (0xE099F8416F82FD671DD04CE1C8834A55) Complete name : Himitsu.wo.Motta.Shounentachi.EP07.1080p.HULU.WEB-DL.AAC2.0.H.264-MagicStar.mkv Format : Matroska Format version : Version 4 File size : 617 MiB Duration : 22 min 7 s Overall bit rate : 3 897 kb/s Frame rate : 29.970 FPS Encoded date : 2023-11-18 21:46:36 UTC Writing application : mkvmerge v50.0.0 ('Awakenings') 64-bit Writing library : libebml v1.4.0 + libmatroska v1.6.2 Cover : Yes Attachments : cover.png Video ID : 1 Format : AVC Format/Info : Advanced Video Codec Format profile : High@L4 Format settings : CABAC / 4 Ref Frames Format settings, CABAC : Yes Format settings, Reference fra : 4 frames Codec ID : V_MPEG4/ISO/AVC Duration : 22 min 7 s Bit rate : 3 640 kb/s Width : 1 920 pixels Height : 1 080 pixels Display aspect ratio : 16:9 Frame rate mode : Constant Frame rate : 29.970 (29970/1000) FPS Original frame rate : 29.970 (30000/1001) FPS Color space : YUV Chroma subsampling : 4:2:0 Bit depth : 8 bits Scan type : Progressive Bits/(Pixel*Frame) : 0.059 Stream size : 576 MiB (93%) Default : Yes Forced : No Color range : Limited Color primaries : BT.709 Transfer characteristics : BT.709 Matrix coefficients : BT.709 Audio ID : 2 Format : AAC LC Format/Info : Advanced Audio Codec Low Complexity Codec ID : A_AAC-2 Duration : 22 min 7 s Bit rate : 253 kb/s Channel(s) : 2 channels Channel layout : L R Sampling rate : 48.0 kHz Frame rate : 46.875 FPS (1024 SPF) Compression mode : Lossy Stream size : 40.1 MiB (7%) Title : 日本語 [オリジナル] Language : Japanese Default : Yes Forced : No ```

File list